» » Various Artists - Adios Amigo: A Tribute to Arthur Alexander
velo-city
full-dateMP3 1555 mb. | FLAC 1420 mb. | WMA: 1751 mb.
Rock and Pop

Various Artists - Adios Amigo: A Tribute to Arthur Alexander flac album

Various Artists - Adios Amigo: A Tribute to Arthur Alexander flac album

Performer: Various Artists
Title: Adios Amigo: A Tribute to Arthur Alexander
Style: Rock & Roll,Album Rock,Alternative/Indie Rock,College Rock,Contemporary Pop/Rock,Country-Rock,Early R&B,Folk-Rock,Hard Rock,New Wave,Power Pop,Psychedelic/Garage,Pub Rock,Punk/New Wave,Roots Rock,Singer/Songwriter
Duration: 53:36
Relesed: August 9, 1994
Rating: 4.9
Votes: 842
Other formats: AUD MPC DXD ADX WMA VQF

Various Artists . Album: Adios Amigo: A Tribute to Arthur Alexander. Adios Amigo: A Tribute to Arthur Alexander Various Artists. only publishes for promotional use and/or for press use images, as delivered and/or authorized by record labels, press offices, promotional agencies; only resorts to degraded images as part of its information feed.

This tribute album is a very pleasing one, packed with great covers of some of Arthur's most famous tunes. You might even have heard a few of these songs covered by other artists over the years. The quality of the material is obviously there, and these performances don't disappoint either. When country soul singer-songwriter Arthur Alexander passed away in 1993 at the age of 53, he was in the middle of a comeback that finally saw him recognized and rewarded for his songwriting genius and the heartbreaking quality of his performances. His last album, Lonely Just Like Me, his first in over two decades, rang as true as anything he'd recorded previously, and was followed the next year by this multi-artist tribute.

Various Artists: Adios Amigo: A Tribute To Arthur Alexander (1994) Label: Razor And Tie (17 tracks by artists including Elvis Costello, Roger McQuinn; Graham Parker; John Prine; Nick Lowe; Marshall Crenshaw and Zucchero. Donnie Fritts: June - A Tribute To Arthur Alexander (2018) Label: Single Lock Records (Donnie Fritts was a frequent collaborator. Songs written by Alexander. Anna (Go To Him)", recorded by Alexander in 1962, covered by the Beatles.

All the great songs and lyrics from the "Adios Amigo: A Tribute to Arthur Alexander" album ont he Web's largest and most authoritative lyrics resource.

Various Artists - Adios Amigo: A Tribute To Arthur Alexander - 1994, FLAC (tracks+. Download via torrent Download via magnet. not logged in. Random Downloads. 1 2 3 4 5 6 7 8 9 10 11 12 13 14 15 16 17 18 19 20 21 22 23 24 25 26 27 28 29 30 31 32 33 34 35 36 37 38 39 40 41 42 43 44 45 46 47 48 49 50. Downloads.

Features Song Lyrics for Nick Lowe's Adios Amigo: A Tribute to Arthur Alexander album. Artists - N. Nick Lowe Lyrics. Adios Amigo: A Tribute to Arthur Alexander Album. Nick Lowe - Adios Amigo: A Tribute To Arthur Alexander Album. Send "Nick Lowe" Ringtones to your Cell.

03:02:30 FILE "(15) Pookie Hudson - Baby Can't You Wait. flac" WAVE INDEX 01 00:00:00 TRACK 16 AUDIO TITLE "Genie In The Jug" PERFORMER "Gary . Bonds" INDEX 00 04:20:35 FILE "(16) Gary . Bonds - Genie In The Ju. lac" WAVE INDEX 01 00:00:00 TRACK 17 AUDIO TITLE "Adios Amigo" PERFORMER "Dan Penn &. Donnie Fritts" INDEX 00 02:35:47 FILE "(17) Dan Penn & Donnie Fritts - Adios Amigo. flac" WAVE INDEX 01 00:00:00.

Track List

Title/Composer Performer Time
1 Anna Arthur Alexander Roger McGuinn 3:07
2 Sally Sue Brown Arthur Alexander Elvis Costello 2:15
3 If It's Really Got to Be This Way Arthur Alexander / Donnie Fritts / Gary Nicholson Robert Plant 4:00
4 Every Day I Have to Cry Arthur Alexander Graham Parker 3:09
5 You Better Move On Arthur Alexander Chuck Jackson / Mark Knopfler 3:40
6 Old John Amos Arthur Alexander Frank Black 2:23
7 I'd Do It All Over Again Arthur Alexander / Donnie Fritts / Dan Penn Marshall Crenshaw 2:32
8 Let's Think About It Arthur Alexander / Jon Tiven Michael Hill / Sir Mack Rice 3:33
9 Lonely Just Like Me Arthur Alexander John Prine 3:06
10 Johnny Heartbreak Arthur Alexander Corey Glover 2:53
11 In the Middle of It All Arthur Alexander Nick Lowe 3:00
12 From Now On Arthur Alexander / Thomas Cain Zucchero 3:58
13 Go Home Girl Arthur Alexander Frank Black / Gary "U.S." Bonds 2:59
14 I Love You So Arthur Alexander / Jon Tiven Felix Cavaliere / Veronica 3:02
15 Baby Can't You Wait Arthur Alexander / Donnie Fritts James Hudson 4:19
16 Genie in the Jug Arthur Alexander / Spooner Oldham Gary "U.S." Bonds 2:35
17 Adios Amigo Arthur Alexander / Donnie Fritts Donnie Fritts / Dan Penn 2:27

Credits

Arthur Alexander - Composer
Frank Black - Performer, Primary Artist
Gary "U.S." Bonds - Performer, Primary Artist
Thomas Cain - Composer
Felix Cavaliere - Performer, Primary Artist
Elvis Costello - Performer, Primary Artist, Producer
Marshall Crenshaw - Performer, Primary Artist
Gordon Davies - Engineer
Jimmy Douglass - Engineer, Mixing
Devin Emke - Engineer
Greg England - Engineer, Producer
Donnie Fritts - Composer, Performer, Primary Artist, Producer, Spiritual Advisor
Joe Funderburk - Engineer
Corey Glover - Performer, Primary Artist
Darren Godwin - Engineer
Mike Gregovich - Engineer
Michael Hill - Performer, Primary Artist
Joe Hogan - Engineer
James Hudson - Performer, Primary Artist
Chuck Jackson - Performer, Primary Artist
Joe Johnson - Engineer
Mark Knopfler - Performer, Primary Artist
Ken Latchney - Assistant
Nick Lowe - Performer, Primary Artist, Producer
Roger McGuinn - Mixing, Performer, Primary Artist
Gary Nicholson - Composer, Producer
Spooner Oldham - Composer
Graham Parker - Performer, Primary Artist
Brigid Pearson - Art Direction
Dan Penn - Composer, Performer, Primary Artist
Robert Plant - Performer, Primary Artist, Producer, Vocals
Gary Platt - Mixing
John Prine - Performer, Primary Artist
Sir Mack Rice - Performer, Primary Artist
Will Schillinger - Engineer
Jon Tiven - Composer, Mixing
Jon & Sally Tiven - Producer
Sally Tiven - Arranger
Mino Vergnaghi - Assistant
Veronica - Performer, Primary Artist
Veronica - Performer
Fio Zanotti - Producer
Zucchero - Performer, Primary Artist, Producer
2016-2019 © www.velo-city.ca
All rights reserved