» » Sonny Constanzo Jazz Orchestra - Sonny's on the Money
velo-city
full-dateMP3 1424 mb. | FLAC 1373 mb. | WMA: 1270 mb.
Jazz

Sonny Constanzo Jazz Orchestra - Sonny's on the Money flac album

Sonny Constanzo Jazz Orchestra - Sonny's on the Money flac album

Performer: Sonny Constanzo Jazz Orchestra
Title: Sonny's on the Money
Relesed: November 23, 1992
Rating: 4.3
Votes: 616
Other formats: AU ASF AC3 DXD MPC WAV

Peak level 4. % Extraction speed . X Range quality 10. % Test CRC F80C0FD9 Copy CRC F80C0FD9 Copy OK. No errors occurred.

Download Sonny Costanzo Jazz Orchestra - Sonny's On The Money - 1992, FLAC (image+. Sonny Costanzo Jazz Orchestra - Sonny's On The Money Scans back. jpg booklet 2-. pg booklet 4-. pg booklet 6-. pg booklet 8-. pg c. pg. Sonny Costanzo Jazz Orchestra - Sonny's On The Money - 1992, FLAC (image+. Download via torrent Download via magnet. Sonny Costanzo Jazz Orchestra - Sonny's On The Money.

Sonny's On The Money (3:42) 09. It Could Happen To You, Love Walked In (5:06) 10. Bouncin' With Bud (4:31) 1. 42:40 TRACK 06 AUDIO TITLE "Interstate Parking Lot" PERFORMER "Sonny Costanzo Jazz Orchestra" INDEX 01 21:34:27 TRACK 07 AUDIO TITLE "Autumn In New York" PERFORMER "Sonny Costanzo Jazz Orchestra" INDEX 01 30:42:10 TRACK 08 AUDIO TITLE "Sonny's On The Money" PERFORMER "Sonny Costanzo Jazz Orchestra" INDEX 01 37:11:15 TRACK 09 AUDIO TITLE "It Could Happen.

b. 7 October 1932, New York City, New York, USA, d. 30 December 1993. Academically trained, and with on-the-road experience playing trombone with big bands such as those led by Woody Herman and Thad Jones and Mel Lewis, Costanzo became a highly-respected musician. After touring Europe with Clark Terry, Costanzo made his own forays outside the USA and established a reputation as a teacher and clinician, especially in the 80s. During this decade he recorded in Czechoslovakia and also appeared on television in the USSR

Cool Jazz, Contemporary Jazz. Original Jazz Classics, Prestige.

rar: 1462 mb. The Sonny Costanzo Jazz Orchestra - Sonny's On The Money download free. The Sonny Costanzo Jazz Orchestra - Sonny's On The Money MP3 version. 1462 downloads at 26 mb/s. The Sonny Costanzo Jazz Orchestra - Sonny's On The Money FLAC version. 1795 downloads at 25 mb/s.

Gigs seen live by. Nobody has seen Sonny Constanzo Big Band live yet! Last updated: 30 May 2019, 20:32 Etc/UTC.

Listen to music from Sonny Constanzo Big Band like New Beginning, New Beginnings & more. Find the latest tracks, albums, and images from Sonny Constanzo Big Band. Connect to this site.

Credits

Sonny Constanzo Jazz Orchestra - Primary Artist
Sonny Costanzo - Primary Artist, Trombone
2016-2019 © www.velo-city.ca
All rights reserved